conanlcg
超級版主

[2018] [歐美] [恐怖] [BD-1080P] 血親 Bloodline.2018.1080p.BluRay.x264-ROVERS 7.66GB

-->

帖子完整標題:血親 Bloodline.2018.1080p.BluRay.x264-ROVERS 7.66GB




◎譯  名 血親
◎片  名 Bloodline
◎年  代 2018
◎產  地 美國
◎類  別 恐怖
◎語  言 英語
◎上映日期 2019-09-20(美國)
◎IMDb評分 6.8/10 from 106 users
◎IMDb鏈接 http://www.imdb.com/title/tt8883524
◎豆瓣評分 0/10 from 0 users
◎豆瓣鏈接 https://movie.douban.com/subject/30479817/
◎片  長 95分鐘
◎導  演 Henry Jacobson
◎編  劇 Avra Fox-Lerner / Will Honley / Henry Jacobson
◎主  演 西恩·威廉·斯科特 Seann William Scott
      戴爾·迪奇 Dale Dickey
      凱文·卡羅爾 Kevin Carroll
      克里斯蒂海瑞 Christie Herring
      小雷蒙德·亞歷山大·查姆 Raymond Alexander Cham Jr.
      利斯·M·伯克 Leith M. Burke
      尼克·伯萊尼 Nick Boraine
      達斯蒂·斯隆格 Dusty Sorg
      拉爾森·湯普森 Larsen Thompson
      馬修·弗林·貝羅斯 Matthew Flynn Bellows
      希拉·安布羅西諾 Hira Ambrosino
      Mariela Garriga
      Sean H. Scully


◎標  簽 恐怖 | 美國電影 | 美國 | 殺手 | 劇情 | Seann_William_Scott | Henry_Jacobson | HenryJacobson

◎簡  介

  Evan (Seann William Scott) values family above all else, and anyone who gets between him, his wife, and newborn son learns that the hard way. But when it comes to violent tendencies, it seems the apple doesn't fall far from the tree.
Video
ID : 1
Format : AVC
Format/Info : Advanced Video Codec
Format profile : [email protected]
Format settings : CABAC / 4 Ref Frames
Format settings, CABAC : Yes
Format settings, Reference frames : 4 frames
Codec ID : V_MPEG4/ISO/AVC
Duration : 1 h 36 min
Bit rate : 9 826 kb/s
Width : 1 920 pixels
Height : 960 pixels
Display aspect ratio : 2.000
Frame rate mode : Constant
Frame rate : 23.976 (24000/1001) FPS
Color space : YUV
Chroma subsampling : 4:2:0
Bit depth : 8 bits
Scan type : Progressive
Bits/(Pixel*Frame) : 0.222
Stream size : 6.63 GiB (87%)
Writing library : x264 core 158 r2984 3759fcb
Encoding settings : cabac=1 / ref=4 / deblock=1:-3:-3 / analyse=0x3:0x113 / me=umh / subme=8 / psy=1 / psy_rd=1.00:0.00 / mixed_ref=1 / me_range=16 / chroma_me=1 / trellis=1 / 8x8dct=1 / cqm=0 / deadzone=21,11 / fast_pskip=1 / chroma_qp_offset=-2 / threads=30 / lookahead_threads=5 / sliced_threads=0 / nr=0 / decimate=1 / interlaced=0 / bluray_compat=0 / constrained_intra=0 / bframes=3 / b_pyramid=2 / b_adapt=1 / b_bias=0 / direct=3 / weightb=1 / open_gop=0 / weightp=2 / keyint=250 / keyint_min=23 / scenecut=40 / intra_refresh=0 / rc_lookahead=50 / rc=2pass / mbtree=1 / bitrate=9826 / ratetol=1.0 / qcomp=0.60 / qpmin=0 / qpmax=69 / qpstep=4 / cplxblur=20.0 / qblur=0.5 / ip_ratio=1.40 / aq=1:1.00
Language : English
Default : Yes
Forced : No

Audio
ID : 2
Format : DTS
Format/Info : Digital Theater Systems
Codec ID : A_DTS
Duration : 1 h 36 min
Bit rate mode : Constant
Bit rate : 1 509 kb/s
Channel(s) : 6 channels
Channel layout : C L R Ls Rs LFE
Sampling rate : 48.0 kHz
Frame rate : 93.750 FPS (512 SPF)
Bit depth : 24 bits
Compression mode : Lossy
Stream size : 1.02 GiB (13%)
Language : English
Default : Yes
Forced : No





1 個附件 售價 大小 下載 時間

Bloodline.2018.1080p.BluRay.x264-ROVERS.torrent 0 金幣 39.14K 658 次 1月前

#1樓
發帖時間:2019-10-15 08:36:28   |   回復數:2
亞瑟王
一派掌門
謝謝樓主分享
1月前 #2樓
911degrees
隱世仙人♂
非常感謝,謝謝分享
29天前 #3樓
游客組