conanlcg
超級版主

[2019] [歐美] [劇情] [BD-1080P] 無畏 Dauntless.The.Battle.of.Midway.2019.1080p.BluRay.x264-ROVERS 7.66GB

-->

帖子完整標題:無畏 Dauntless.The.Battle.of.Midway.2019.1080p.BluRay.x264-ROVERS 7.66GB




◎譯  名 無畏 / Dauntless: The Battle of Midway / 無畏:中途島之戰
◎片  名 Dauntless
◎年  代 2019
◎產  地 美國
◎類  別 劇情 / 戰爭
◎語  言 英語
◎上映日期 2019-09-01(美國)
◎IMDb鏈接 http://www.imdb.com/title/tt8685520
◎豆瓣評分 0/10 from 0 users
◎豆瓣鏈接 https://movie.douban.com/subject/33435782/
◎片  長 97分鐘
◎導  演 邁克·菲利普斯 Mike Phillips
◎編  劇 亞當·克萊恩 Adam Klein
◎主  演 賈德·尼爾森 Judd Nelson
      德魯·加勒特 Drew Garrett
      Aidan Bristow
      C·托馬斯·豪威爾 C. Thomas Howell
      詹姆斯·奧斯汀·科爾 James Austin Kerr


◎標  簽 戰爭 | 二戰 | 2019 | 海戰 | 太平洋戰爭

◎簡  介

  By June 1942, the Japanese Navy has swept across the Pacific. In an effort to change the course of the war, a United States carrier group is positioned off the coast of Midway, tasked with springing a trap on the enemy. During this pivotal battle, the two-man crew of a U.S. Navy dive bomber is forced to ditch in the sea. Set adrift, the men look qiwan.cc towards their comrades for rescue; namely, the ragtag crew of a PBY Catalina, who are sent to search for survivors. Amid the vast openness of the Pacific, with days passing and the chance of rescue fading, the men are forced to face their own mortality.
Video
ID : 1
Format : AVC
Format/Info : Advanced Video Codec
Format profile : [email protected]
Format settings : CABAC / 5 Ref Frames
Format settings, CABAC : Yes
Format settings, Reference frames : 5 frames
Codec ID : V_MPEG4/ISO/AVC
Duration : 1 h 37 min
Bit rate : 9 694 kb/s
Width : 1 920 pixels
Height : 808 pixels
Display aspect ratio : 2.40:1
Frame rate mode : Constant
Frame rate : 23.976 (24000/1001) FPS
Color space : YUV
Chroma subsampling : 4:2:0
Bit depth : 8 bits
Scan type : Progressive
Bits/(Pixel*Frame) : 0.261
Stream size : 6.62 GiB (87%)
Writing library : x264 core 158 r2984 3759fcb
Encoding settings : cabac=1 / ref=5 / deblock=1:-3:-3 / analyse=0x3:0x133 / me=umh / subme=8 / psy=1 / psy_rd=1.00:0.00 / mixed_ref=1 / me_range=16 / chroma_me=1 / trellis=1 / 8x8dct=1 / cqm=0 / deadzone=21,11 / fast_pskip=0 / chroma_qp_offset=-2 / threads=25 / lookahead_threads=4 / sliced_threads=0 / nr=0 / decimate=1 / interlaced=0 / bluray_compat=0 / constrained_intra=0 / bframes=3 / b_pyramid=2 / b_adapt=1 / b_bias=0 / direct=3 / weightb=1 / open_gop=0 / weightp=2 / keyint=250 / keyint_min=23 / scenecut=40 / intra_refresh=0 / rc_lookahead=50 / rc=2pass / mbtree=1 / bitrate=9694 / ratetol=1.0 / qcomp=0.60 / qpmin=0 / qpmax=69 / qpstep=4 / cplxblur=20.0 / qblur=0.5 / vbv_maxrate=62500 / vbv_bufsize=78125 / nal_hrd=none / filler=0 / ip_ratio=1.40 / aq=1:1.00
Default : Yes
Forced : No

Audio
ID : 2
Format : DTS
Format/Info : Digital Theater Systems
Codec ID : A_DTS
Duration : 1 h 37 min
Bit rate mode : Constant
Bit rate : 1 509 kb/s
Channel(s) : 6 channels
Channel layout : C L R Ls Rs LFE
Sampling rate : 48.0 kHz
Frame rate : 93.750 FPS (512 SPF)
Bit depth : 24 bits
Compression mode : Lossy
Stream size : 1.03 GiB (13%)
Language : English
Default : Yes
Forced : No

Menu
00:00:00.000 : en:00:00:00.000
00:05:34.000 : en:00:05:34.000
00:15:38.938 : en:00:15:38.938
00:22:41.944 : en:00:22:41.944
00:38:21.216 : en:00:38:21.216
00:48:19.063 : en:00:48:19.063
00:52:43.952 : en:00:52:43.952
00:56:52.117 : en:00:56:52.117
01:01:26.474 : en:01:01:26.474
01:10:22.510 : en:01:10:22.510
01:15:59.805 : en:01:15:59.805
01:22:47.754 : en:01:22:47.754





1 個附件 售價 大小 下載 時間

Dauntless.The.Battle.of.Midway.2019.1080p.BluRay.x264-ROVERS.torrent 0 金幣 39.26K 777 次 1月前

#1樓
發帖時間:2019-10-15 08:32:43   |   回復數:1
911degrees
隱世仙人♂
非常感謝,謝謝分享
29天前 #2樓
游客組