conanlcg
超級版主

[2019] [歐美] [喜劇] [BD-720P] 撒旦的恐慌 Satanic.Panic.2019.720p.BluRay.x264-ROVERS 4.38GB

-->

帖子完整標題:撒旦的恐慌 Satanic.Panic.2019.720p.BluRay.x264-ROVERS 4.38GB




◎譯  名 撒旦的恐慌
◎片  名 Satanic Panic
◎年  代 2019
◎產  地 美國
◎類  別 喜劇 / 恐怖
◎語  言 英語
◎上映日期 2019-09-06(美國)
◎IMDb評分 6.4/10 from 123 users
◎IMDb鏈接 http://www.imdb.com/title/tt8510350
◎豆瓣評分 0/10 from 0 users
◎豆瓣鏈接 https://movie.douban.com/subject/33409114/
◎片  長 85分鐘
◎導  演 Chelsea Stardust Peters
◎編  劇 Ted Geoghegan / Grady Hendrix
◎主  演 麗貝卡·羅梅恩 Rebecca Romijn
      杰瑞·奧康奈爾 Jerry O'Connell
      喬丹·萊德 Jordan Ladd


◎標  簽 恐怖 | 喜劇 | 美式恐怖 | 美國 | 美國電影 | 杰瑞·奧康奈爾 | 麗貝卡·羅梅恩 | ChelseaStardust

◎簡  介

  A pizza delivery girl at the end of her financial rope has to fight for her life - and her tips - when her last order of the night turns out to be high society Satanists in need of a virgin sacrifice.
Video
ID : 1
Format : AVC
Format/Info : Advanced Video Codec
Format profile : [email protected]
Format settings : CABAC / 5 Ref Frames
Format settings, CABAC : Yes
Format settings, Reference frames : 5 frames
Codec ID : V_MPEG4/ISO/AVC
Duration : 1 h 28 min
Bit rate : 5 544 kb/s
Width : 1 280 pixels
Height : 696 pixels
Display aspect ratio : 1.85:1
Frame rate mode : Constant
Frame rate : 23.976 (24000/1001) FPS
Color space : YUV
Chroma subsampling : 4:2:0
Bit depth : 8 bits
Scan type : Progressive
Bits/(Pixel*Frame) : 0.260
Stream size : 3.43 GiB (79%)
Writing library : x264 core 158 r2984 3759fcb
Encoding settings : cabac=1 / ref=5 / deblock=1:-3:-3 / analyse=0x3:0x133 / me=umh / subme=8 / psy=1 / psy_rd=1.00:0.00 / mixed_ref=1 / me_range=16 / chroma_me=1 / trellis=1 / 8x8dct=1 / cqm=0 / deadzone=21,11 / fast_pskip=0 / chroma_qp_offset=-2 / threads=22 / lookahead_threads=3 / sliced_threads=0 / nr=0 / decimate=1 / interlaced=0 / bluray_compat=0 / constrained_intra=0 / bframes=3 / b_pyramid=2 / b_adapt=1 / b_bias=0 / direct=3 / weightb=1 / open_gop=0 / weightp=2 / keyint=250 / keyint_min=23 / scenecut=40 / intra_refresh=0 / rc_lookahead=50 / rc=2pass / mbtree=1 / bitrate=5544 / ratetol=1.0 / qcomp=0.60 / qpmin=0 / qpmax=69 / qpstep=4 / cplxblur=20.0 / qblur=0.5 / vbv_maxrate=62500 / vbv_bufsize=78125 / nal_hrd=none / filler=0 / ip_ratio=1.40 / aq=1:1.00
Default : Yes
Forced : No

Audio
ID : 2
Format : DTS
Format/Info : Digital Theater Systems
Codec ID : A_DTS
Duration : 1 h 28 min
Bit rate mode : Constant
Bit rate : 1 509 kb/s
Channel(s) : 6 channels
Channel layout : C L R Ls Rs LFE
Sampling rate : 48.0 kHz
Frame rate : 93.750 FPS (512 SPF)
Bit depth : 24 bits
Compression mode : Lossy
Stream size : 957 MiB (21%)
Language : English
Default : Yes
Forced : No

Menu
00:00:00.000 : en:00:00:00.000
00:07:50.595 : en:00:07:50.595
00:25:05.003 : en:00:25:05.003
00:34:15.971 : en:00:34:15.971
00:42:38.222 : en:00:42:38.222
00:53:25.160 : en:00:53:25.160
01:07:14.364 : en:01:07:14.364
01:22:25.357 : en:01:22:25.357





1 個附件 售價 大小 下載 時間

Satanic.Panic.2019.720p.BluRay.x264-ROVERS.torrent 0 金幣 44.59K 518 次 28天前

#1樓
發帖時間:2019-10-15 08:28:30   |   回復數:1
911degrees
隱世仙人♂
非常感謝,謝謝分享
27天前 #2樓
游客組