conanlcg
超級版主

[2012] [歐美] [劇情] [WEB-1080P] 我愿意/我相信 I.Do.2012.1080p.AMZN.WEBRip.DDP5.1.x264-monkee 4.95GB

-->

帖子完整標題:我愿意/我相信 I.Do.2012.1080p.AMZN.WEBRip.DDP5.1.x264-monkee 4.95GB




◎譯  名 我愿意 / 我相信
◎片  名 I Do
◎年  代 2012
◎產  地 美國
◎類  別 劇情 / 愛情 / 同性
◎語  言 英語 / 西班牙語
◎上映日期 2012-05-31(美國)
◎IMDb評分 6.5/10 from 1022 users
◎IMDb鏈接 https://www.imdb.com/title/tt2102499
◎豆瓣評分 7.4/10 from 2221 users
◎豆瓣鏈接 https://movie.douban.com/subject/10769695/
◎片  長 91分鐘
◎導  演 Glenn Gaylord
◎編  劇 David W. Ross
◎主  演 吉米-林·辛格勒 Jamie-Lynn Sigler
      艾麗西亞·維特 Alicia Witt
      Maurice Compte
      David W. Ross
      格蘭特·鮑爾 Grant Bowler
      Patricia Belcher
      Jessica Tyler Brown


◎標  簽 同性 | 美國 | 愛情 | 同志 | 溫情 | 美國電影 | 2012 | LGBT

◎簡  介

  杰克(David W. Ross 飾)在哥哥因車禍意外去世后一直留在美國,承擔照顧嫂嫂和侄女的重任。當他的工作簽證到期后,他做了任何同志可能會做的事:和Gay蜜艾麗(Jamie-Lynn Sigler 飾)結婚,以換取繼續和家人一起生活的機會。可是當他遇到心動的異國男子 馬洛(Maurice Compte 飾)后,他開始幻想屬于自己的生活,原本平靜的世界變得分崩離析,而艾麗也漸漸后悔當初做出的草率決定。移民局的家訪提醒著杰克:他正面臨被遣返的命運......
  由《外出就餐3》導演Glenn Gaylord帶來的這部《我愿意》如實反映了美國婚姻平權的現實困境,對《保護婚姻法案》(DOMA)充滿感性的聲討恰如其時。盡管2013年美國最高法院已經宣布DOMA違憲,同性伴侶可以申請包括綠卡在內多項聯邦福利,但電影提醒著我們一些無法回避的過去。
Video
ID : 1
Format : AVC
Format/Info : Advanced Video Codec
Format profile : [email protected]
Format settings : CABAC / 4 Ref Frames
Format settings, CABAC : Yes
Format settings, Reference frames : 4 frames
Codec ID : V_MPEG4/ISO/AVC
Duration : 1 h 30 min
Bit rate mode : Variable
Bit rate : 7 189 kb/s
Maximum bit rate : 15.0 Mb/s
Width : 1 920 pixels
Height : 1 080 pixels
Display aspect ratio : 16:9
Frame rate mode : Constant
Frame rate : 23.976 (24000/1001) FPS
Color space : YUV
Chroma subsampling : 4:2:0
Bit depth : 8 bits
Scan type : Progressive
Bits/(Pixel*Frame) : 0.145
Stream size : 4.54 GiB (92%)
Writing library : x264 core 148 r2623 d5b2374
Encoding settings : cabac=1 / ref=4 / deblock=1:-1:-1 / analyse=0x3:0x133 / me=umh / subme=9 / psy=1 / psy_rd=1.00:0.15 / mixed_ref=1 / me_range=24 / chroma_me=1 / trellis=2 / 8x8dct=1 / cqm=0 / deadzone=21,11 / fast_pskip=1 / chroma_qp_offset=-3 / threads=34 / lookahead_threads=5 / sliced_threads=0 / nr=150 / decimate=1 / interlaced=0 / bluray_compat=0 / constrained_intra=0 / bframes=8 / b_pyramid=2 / b_adapt=2 / b_bias=0 / direct=3 / weightb=1 / open_gop=0 / weightp=2 / keyint=120 / keyint_min=61 / scenecut=0 / intra_refresh=0 / rc_lookahead=120 / rc=crf / mbtree=1 / crf=18.0 / qcomp=0.60 / qpmin=0 / qpmax=69 / qpstep=4 / vbv_maxrate=15000 / vbv_bufsize=31250 / crf_max=0.0 / nal_hrd=vbr / filler=0 / ip_ratio=1.40 / aq=3:1.00
Default : Yes
Forced : No
Color range : Limited
Color primaries : BT.709
Transfer characteristics : BT.709
Matrix coefficients : BT.709

Audio
ID : 2
Format : E-AC-3
Format/Info : Enhanced AC-3
Commercial name : Dolby Digital Plus
Codec ID : A_EAC3
Duration : 1 h 30 min
Bit rate mode : Constant
Bit rate : 640 kb/s
Channel(s) : 6 channels
Channel layout : L R C LFE Ls Rs
Sampling rate : 48.0 kHz
Frame rate : 31.250 FPS (1536 SPF)
Compression mode : Lossy
Stream size : 414 MiB (8%)
Language : English
Service kind : Complete Main
Default : Yes
Forced : No

Text
ID : 3
Format : UTF-8
Codec ID : S_TEXT/UTF8
Codec ID/Info : UTF-8 Plain Text
Duration : 1 h 29 min
Bit rate : 71 b/s
Count of elements : 2515
Stream size : 46.9 KiB (0%)
Language : English
Default : No
Forced : No





1 個附件 售價 大小 下載 時間

I.Do.2012.1080p.AMZN.WEBRip.DDP5.1.x264-monkee.torrent 0 金幣 99.50K 203 次 28天前

#1樓
發帖時間:2019-10-15 06:59:34   |   回復數:1
911degrees
隱世仙人♂
非常感謝,謝謝分享
28天前 #2樓
游客組