conanlcg
超級版主

[更 早] [歐美] [喜劇] [WEB-1080P] 兩男一女三逃犯 Quick.Change.1990.1080p.AMZN.WEBRip.DDP2.0.x264-monkee 9.20GB

-->

帖子完整標題:兩男一女三逃犯 Quick.Change.1990.1080p.AMZN.WEBRip.DDP2.0.x264-monkee 9.20GB




◎譯  名 兩男一女三逃犯
◎片  名 Quick Change
◎年  代 1990
◎產  地 美國
◎類  別 喜劇 / 犯罪
◎語  言 英語
◎上映日期 1990-07-13(美國)
◎IMDb評分 6.8/10 from 18124 users
◎IMDb鏈接 https://www.imdb.com/title/tt0100449
◎豆瓣評分 7.6/10 from 1008 users
◎豆瓣鏈接 https://movie.douban.com/subject/1299997/
◎片  長 89 分鐘
◎導  演 比爾·默瑞 Bill Murray / 霍華德·法蘭克林 Howard Franklin
◎編  劇 霍華德·法蘭克林 Howard Franklin / Jay Cronley
◎主  演 比爾·默瑞 Bill Murray
      吉娜·戴維斯 Geena Davis
      蘭迪·奎德 Randy Quaid


◎標  簽 喜劇 | 美國 | 黑色幽默 | 犯罪 | 美國電影 | BillMurray | 搞笑 | 1990

◎簡  介

  三名劫匪計劃周的去搶劫銀行,其中一名化妝成小丑,在銀行即將打烊之際潛入,并持槍劫持十多名人質,聞訊趕到的警方,將銀行層層包圍,試圖與劫匪談判,釋放人質,而一陣忙亂之際,劫匪小丑竟離奇消失,甚至挾走百萬巨款脫逃出了警方層層包圍,但是紐約擁擠街道,忙碌的人潮,多樣性的文化,使得他們逃亡的過程中產生種種的笑話,
Video
ID : 1
Format : AVC
Format/Info : Advanced Video Codec
Format profile : [email protected]
Format settings : CABAC / 4 Ref Frames
Format settings, CABAC : Yes
Format settings, Reference frames : 4 frames
Codec ID : V_MPEG4/ISO/AVC
Duration : 1 h 28 min
Bit rate mode : Variable
Bit rate : 14.6 Mb/s
Maximum bit rate : 15.0 Mb/s
Width : 1 920 pixels
Height : 1 080 pixels
Display aspect ratio : 16:9
Frame rate mode : Constant
Frame rate : 23.976 (24000/1001) FPS
Color space : YUV
Chroma subsampling : 4:2:0
Bit depth : 8 bits
Scan type : Progressive
Bits/(Pixel*Frame) : 0.294
Stream size : 9.06 GiB (98%)
Default : Yes
Forced : No
Color range : Limited
Color primaries : BT.709
Transfer characteristics : BT.709
Matrix coefficients : BT.709

Audio
ID : 2
Format : E-AC-3
Format/Info : Enhanced AC-3
Commercial name : Dolby Digital Plus
Codec ID : A_EAC3
Duration : 1 h 28 min
Bit rate mode : Constant
Bit rate : 224 kb/s
Channel(s) : 2 channels
Channel layout : L R
Sampling rate : 48.0 kHz
Frame rate : 31.250 FPS (1536 SPF)
Compression mode : Lossy
Stream size : 142 MiB (2%)
Language : English
Service kind : Complete Main
Default : Yes
Forced : No

Text
ID : 3
Format : UTF-8
Codec ID : S_TEXT/UTF8
Codec ID/Info : UTF-8 Plain Text
Duration : 1 h 24 min
Bit rate : 67 b/s
Count of elements : 1730
Stream size : 41.7 KiB (0%)
Language : English
Default : No
Forced : No





1 個附件 售價 大小 下載 時間

Quick.Change.1990.1080p.AMZN.WEBRip.DDP2.0.x264-monkee.torrent 0 金幣 92.55K 322 次 28天前

#1樓
發帖時間:2019-10-15 06:57:04   |   回復數:1
911degrees
隱世仙人♂
非常感謝,謝謝分享
28天前 #2樓
游客組