conanlcg
超級版主

[2019] [歐美] [其他] [WEB-1080P] 劣跡斑斑/一身塵土:M?tley Crüe The.Dirt.2019.1080p.WEBRip.X264-DEFLATE 11.56GB

-->

帖子完整標題:劣跡斑斑/一身塵土:M?tley Crüe The.Dirt.2019.1080p.WEBRip.X264-DEFLATE 11.56GB




◎譯  名 劣跡斑斑 / 一身塵土:M?tley Crüe(港) / 克魯小丑的搖滾壞生活(臺) / 塵土 / 污垢
◎片  名 The Dirt
◎年  代 2019
◎產  地 美國
◎類  別 音樂 / 傳記
◎語  言 英語
◎上映日期 2019-03-22(美國)
◎IMDb評分 7.0/10 from 30265 users
◎IMDb鏈接 http://www.imdb.com/title/tt0800325
◎豆瓣評分 7.7/10 from 1961 users
◎豆瓣鏈接 https://movie.douban.com/subject/1945750/
◎片  長 107分鐘
◎導  演 杰夫·特里梅因 Jeff Tremaine
◎編  劇 阿曼達·阿德爾森 Amanda Adelson / 湯米·李 Tommy Lee / 米克·馬爾斯 Mick Mars / 萬斯·尼爾 Vince Neil / 尼基·錫克斯 Nikki Sixx / 尼爾·史特勞斯 Neil Strauss / 里奇·威爾克斯 Rich Wilkes
◎主  演 機關槍凱利 Machine Gun Kelly
      埃里·恩比 Erin Ownbey
      道格拉斯·布斯 Douglas Booth
      艾倫·杰伊·羅姆 Aaron Jay Rome
      丹尼爾·韋伯 Daniel Webber
      艾麗莎·瑪麗·史迪威 Alyssa Marie Stilwell
      布蘭妮·弗蘭 Brittany Furlan
      伊萬·瑞恩 Iwan Rheon
      凱瑟琳·莫里斯 Kathryn Morris
      文斯·馬蒂斯 Vince Mattis
      阿維斯·瑪麗·巴尼斯 Avis-Marie Barnes
      喬·克里斯特 Joe Chrest
      考特尼·迪茨 Courtney Dietz
      彼得·詹梅斯 Peter Jaymes Jr.
      皮特·戴維森 Pete Davidson
      西爾維婭·格雷絲·克里姆 Sylvia Grace Crim
      克里斯蒂安·格林 Christian Gehring
      大衛·科斯塔貝爾 David Costabile
      托尼·卡瓦勒羅 Tony Cavalero
      萊文·蘭賓 Leven Rambin
      喬丹·林恩·皮爾斯 Jordan Lane Price
      約書亞·米克爾 Joshua Mikel
      布萊恩·克恩 Blaine Kern III
      馬丁·巴特斯·布拉德福德 Martin Bats Bradford
      薩米·哈加爾 Sammy Hagar
      湯米·李 Tommy Lee
      米克·馬爾斯 Mick Mars
      萬斯·尼爾 Vince Neil
      尼基·錫克斯 Nikki Sixx
      愛德華·范海倫 Edward Van Halen


◎標  簽 傳記 | 搖滾 | 音樂 | 美國 | Netflix | 2019 | 劇情 | 重金屬

◎簡  介

  說唱歌手Machine Gun Kelly加盟莫特利·克魯樂隊傳記片《塵土》(The Dirt),飾演創立者之一Tommy Lee,道格拉斯·布斯將飾演另一位創立者Nikki Sixx。
  《蠢蛋搞怪秀》導演Jeff Tremaine執導,Rich Wilkes(《極限特工》)、Tom Kapinos(《路西法》)和Amanda Adelson編劇寫本,Netflix制作和發行。
  影片基于自傳《The Dirt: Confessions of the World’s Most Notorious Rock Band》,聚焦該重金屬樂隊在80年代的崛起。
  莫特利·克魯樂隊1981年1月成立于洛杉磯,組員包括貝斯手Nikki Sixx、鼓手Tommy Lee、主唱Vince Neil和吉他手Mick Mars。同年11月發行了首張專輯《Too Fast for Love》,供不應求,加印后再次售罄,廣獲好評。該樂隊于2015年12月31日舉行了謝幕演出,唱片在全球暢銷超過1億張,其中美國占2500萬張。
Video
ID : 1
Format : AVC
Format/Info : Advanced Video Codec
Format profile : [email protected]
Format settings : CABAC / 5 Ref Frames
Format settings, CABAC : Yes
Format settings, Reference frames : 5 frames
Codec ID : V_MPEG4/ISO/AVC
Duration : 1 h 47 min
Bit rate : 14.3 Mb/s
Width : 1 920 pixels
Height : 804 pixels
Display aspect ratio : 2.40:1
Frame rate mode : Constant
Frame rate : 23.976 (24000/1001) FPS
Color space : YUV
Chroma subsampling : 4:2:0
Bit depth : 8 bits
Scan type : Progressive
Bits/(Pixel*Frame) : 0.387
Stream size : 10.8 GiB (93%)
Writing library : x264 core 157 r2970+4 (master: 5493be8 / tmod: ee101b3) [X86_64]
Encoding settings : cabac=1 / ref=5 / deblock=1:-3:-3 / analyse=0x3:0x133 / me=umh / subme=11 / psy=1 / psy_rd=1.05:0.15 / mixed_ref=1 / me_range=48 / chroma_me=1 / trellis=2 / 8x8dct=1 / cqm=0 / deadzone=6,6 / fast_pskip=0 / chroma_qp_offset=-3 / threads=25 / lookahead_threads=6 / sliced_threads=0 / nr=0 / decimate=0 / interlaced=0 / bluray_compat=0 / constrained_intra=0 / bframes=10 / b_pyramid=2 / b_adapt=2 / b_bias=0 / direct=3 / weightb=1 / open_gop=0 / weightp=2 / keyint=250 / keyint_min=23 / scenecut=40 / intra_refresh=0 / rc_lookahead=60 / rc=crf / mbtree=0 / crf=19.0 / qcomp=0.70 / qpmin=0 / qpmax=69 / qpstep=4 / vbv_maxrate=62500 / vbv_bufsize=78125 / crf_max=0.0 / nal_hrd=none / filler=0 / ip_ratio=1.25 / pb_ratio=1.20 / aq=3:0.70
Language : English
Default : Yes
Forced : No

Audio
ID : 2
Format : E-AC-3 JOC
Format/Info : Enhanced AC-3 with Joint Object Coding
Commercial name : Dolby Digital Plus with Dolby Atmos
Codec ID : A_EAC3
Duration : 1 h 47 min
Bit rate mode : Constant
Bit rate : 768 kb/s
Channel(s) : 6 channels
Channel layout : L R C LFE Ls Rs
Sampling rate : 48.0 kHz
Frame rate : 31.250 FPS (1536 SPF)
Compression mode : Lossy
Stream size : 590 MiB (5%)
Language : English
Service kind : Complete Main
Default : Yes
Forced : No
Complexity index : 16
Number of dynamic objects : 15
Bed channel count : 1 channel
Bed channel configuration : LFE

Text #1
ID : 3
Format : UTF-8
Codec ID : S_TEXT/UTF8
Codec ID/Info : UTF-8 Plain Text
Title : English
Language : English
Default : No
Forced : No

Text #2
ID : 4
Format : UTF-8
Codec ID : S_TEXT/UTF8
Codec ID/Info : UTF-8 Plain Text
Title : English (SDH)
Language : English
Default : No
Forced : No

Text #3
ID : 5
Format : UTF-8
Codec ID : S_TEXT/UTF8
Codec ID/Info : UTF-8 Plain Text
Title : Arabic
Language : Arabic
Default : No
Forced : No

Text #4
ID : 6
Format : UTF-8
Codec ID : S_TEXT/UTF8
Codec ID/Info : UTF-8 Plain Text
Title : Chinese (Simplified)
Language : Chinese
Default : No
Forced : No

Text #5
ID : 7
Format : UTF-8
Codec ID : S_TEXT/UTF8
Codec ID/Info : UTF-8 Plain Text
Title : Chinese (Traditional)
Language : Chinese
Default : No
Forced : No

Text #6
ID : 8
Format : UTF-8
Codec ID : S_TEXT/UTF8
Codec ID/Info : UTF-8 Plain Text
Title : Czech
Language : Czech
Default : No
Forced : No

Text #7
ID : 9
Format : UTF-8
Codec ID : S_TEXT/UTF8
Codec ID/Info : UTF-8 Plain Text
Title : Danish
Language : Danish
Default : No
Forced : No

Text #8
ID : 10
Format : UTF-8
Codec ID : S_TEXT/UTF8
Codec ID/Info : UTF-8 Plain Text
Title : Dutch
Language : Dutch
Default : No
Forced : No

Text #9
ID : 11
Format : UTF-8
Codec ID : S_TEXT/UTF8
Codec ID/Info : UTF-8 Plain Text
Title : Finnish
Language : Finnish
Default : No
Forced : No

Text #10
ID : 12
Format : UTF-8
Codec ID : S_TEXT/UTF8
Codec ID/Info : UTF-8 Plain Text
Title : French
Language : French
Default : No
Forced : No

Text #11
ID : 13
Format : UTF-8
Codec ID : S_TEXT/UTF8
Codec ID/Info : UTF-8 Plain Text
Title : German
Language : German
Default : No
Forced : No

Text #12
ID : 14
Format : UTF-8
Codec ID : S_TEXT/UTF8
Codec ID/Info : UTF-8 Plain Text
Title : Greek
Language : Greek
Default : No
Forced : No

Text #13
ID : 15
Format : UTF-8
Codec ID : S_TEXT/UTF8
Codec ID/Info : UTF-8 Plain Text
Title : Hebrew
Language : Hebrew
Default : No
Forced : No

Text #14
ID : 16
Format : UTF-8
Codec ID : S_TEXT/UTF8
Codec ID/Info : UTF-8 Plain Text
Title : Indonesian
Language : Indonesian
Default : No
Forced : No

Text #15
ID : 17
Format : UTF-8
Codec ID : S_TEXT/UTF8
Codec ID/Info : UTF-8 Plain Text
Title : Italian
Language : Italian
Default : No
Forced : No

Text #16
ID : 18
Format : UTF-8
Codec ID : S_TEXT/UTF8
Codec ID/Info : UTF-8 Plain Text
Title : Japanese
Language : Japanese
Default : No
Forced : No

Text #17
ID : 19
Format : UTF-8
Codec ID : S_TEXT/UTF8
Codec ID/Info : UTF-8 Plain Text
Title : Korean
Language : Korean
Default : No
Forced : No

Text #18
ID : 20
Format : UTF-8
Codec ID : S_TEXT/UTF8
Codec ID/Info : UTF-8 Plain Text
Title : Norwegian
Language : Norwegian
Default : No
Forced : No

Text #19
ID : 21
Format : UTF-8
Codec ID : S_TEXT/UTF8
Codec ID/Info : UTF-8 Plain Text
Title : Polish
Language : Polish
Default : No
Forced : No

Text #20
ID : 22
Format : UTF-8
Codec ID : S_TEXT/UTF8
Codec ID/Info : UTF-8 Plain Text
Title : Portuguese
Language : Portuguese
Default : No
Forced : No

Text #21
ID : 23
Format : UTF-8
Codec ID : S_TEXT/UTF8
Codec ID/Info : UTF-8 Plain Text
Title : Portuguese (Brazilian)
Language : Portuguese
Default : No
Forced : No

Text #22
ID : 24
Format : UTF-8
Codec ID : S_TEXT/UTF8
Codec ID/Info : UTF-8 Plain Text
Title : Romanian
Language : Romanian
Default : No
Forced : No

Text #23
ID : 25
Format : UTF-8
Codec ID : S_TEXT/UTF8
Codec ID/Info : UTF-8 Plain Text
Title : Russian
Language : Russian
Default : No
Forced : No

Text #24
ID : 26
Format : UTF-8
Codec ID : S_TEXT/UTF8
Codec ID/Info : UTF-8 Plain Text
Title : Spanish
Language : Spanish
Default : No
Forced : No

Text #25
ID : 27
Format : UTF-8
Codec ID : S_TEXT/UTF8
Codec ID/Info : UTF-8 Plain Text
Title : Spanish
Language : Spanish
Default : No
Forced : No

Text #26
ID : 28
Format : UTF-8
Codec ID : S_TEXT/UTF8
Codec ID/Info : UTF-8 Plain Text
Title : Swedish
Language : Swedish
Default : No
Forced : No

Text #27
ID : 29
Format : UTF-8
Codec ID : S_TEXT/UTF8
Codec ID/Info : UTF-8 Plain Text
Title : Thai
Language : Thai
Default : No
Forced : No

Text #28
ID : 30
Format : UTF-8
Codec ID : S_TEXT/UTF8
Codec ID/Info : UTF-8 Plain Text
Title : Turkish
Language : Turkish
Default : No
Forced : No





1 個附件 售價 大小 下載 時間

The.Dirt.2019.1080p.WEBRip.X264-DEFLATE.torrent 0 金幣 58.44K 287 次 28天前

#1樓
發帖時間:2019-10-15 06:48:56   |   回復數:2
911degrees
隱世仙人♂
非常感謝,謝謝分享
28天前 #2樓
yangbo83222179
一代宗師
謝謝樓主分享
28天前 #3樓
游客組