conanlcg
超級版主

[更 早] [歐美] [劇情] [WEB-1080P] 戰斗六十九 The.Fighting.69th.1940.1080p.AMZN.WEBRip.DD1.0.x264-SbR 8.04GB

-->

帖子完整標題:戰斗六十九 The.Fighting.69th.1940.1080p.AMZN.WEBRip.DD1.0.x264-SbR 8.04GB




◎譯  名 戰斗六十九 / Father Duffy of the Fighting 69th / 英勇六十九軍
◎片  名 The Fighting 69th
◎年  代 1940
◎產  地 美國
◎類  別 劇情 / 動作 / 傳記 / 歷史 / 戰爭 / 冒險
◎語  言 英語 / 希伯來語 / 拉丁語 / 意第緒語
◎上映日期 1940-01-26
◎IMDb評分 6.7/10 from 1639 users
◎IMDb鏈接 https://www.imdb.com/title/tt0032467
◎豆瓣評分 6.8/10 from 52 users
◎豆瓣鏈接 https://movie.douban.com/subject/1305712/
◎片  長 90 分鐘
◎導  演 William Keighley
◎編  劇 Dean Riesner / Fred Niblo Jr.
◎主  演 James Cagney
      Pat O'Brien
      George Brent


◎標  簽 美國 | 戰爭 | 詹姆斯·卡格尼 | 美國電影 | 威廉·凱利 | 1940s | 動作 | 劇情

◎簡  介

  故事發生在第一次世界大戰。講述一隊戰士,里面有名戰士出賣隊友,后來很多戰友相繼陣亡,但中途事態有了變故,這個出賣隊友的人,到底何去何從?!
Video
ID : 1
Format : AVC
Format/Info : Advanced Video Codec
Format profile : [email protected]
Format settings : CABAC / 4 Ref Frames
Format settings, CABAC : Yes
Format settings, Reference frames : 4 frames
Codec ID : V_MPEG4/ISO/AVC
Duration : 1 h 29 min
Bit rate mode : Variable
Bit rate : 12.6 Mb/s
Maximum bit rate : 15.0 Mb/s
Width : 1 440 pixels
Height : 1 080 pixels
Display aspect ratio : 4:3
Frame rate mode : Constant
Frame rate : 23.976 (24000/1001) FPS
Color space : YUV
Chroma subsampling : 4:2:0
Bit depth : 8 bits
Scan type : Progressive
Bits/(Pixel*Frame) : 0.338
Stream size : 7.91 GiB (98%)
Writing library : x264 core 148 r2623 d5b2374
Encoding settings : cabac=1 / ref=4 / deblock=1:-1:-1 / analyse=0x3:0x133 / me=umh / subme=9 / psy=1 / psy_rd=1.00:0.15 / mixed_ref=1 / me_range=24 / chroma_me=1 / trellis=2 / 8x8dct=1 / cqm=0 / deadzone=21,11 / fast_pskip=1 / chroma_qp_offset=-3 / threads=34 / lookahead_threads=5 / sliced_threads=0 / nr=150 / decimate=1 / interlaced=0 / bluray_compat=0 / constrained_intra=0 / bframes=8 / b_pyramid=2 / b_adapt=2 / b_bias=0 / direct=3 / weightb=1 / open_gop=0 / weightp=2 / keyint=120 / keyint_min=61 / scenecut=0 / intra_refresh=0 / rc_lookahead=120 / rc=crf / mbtree=1 / crf=18.0 / qcomp=0.60 / qpmin=0 / qpmax=69 / qpstep=4 / vbv_maxrate=15000 / vbv_bufsize=31250 / crf_max=0.0 / nal_hrd=vbr / filler=0 / ip_ratio=1.40 / aq=3:1.00
Language : English
Default : Yes
Forced : No
Color range : Limited
Color primaries : BT.709
Transfer characteristics : BT.709
Matrix coefficients : BT.709

Audio
ID : 2
Format : AC-3
Format/Info : Audio Coding 3
Commercial name : Dolby Digital
Codec ID : A_AC3
Duration : 1 h 29 min
Bit rate mode : Constant
Bit rate : 192 kb/s
Channel(s) : 1 channel
Channel layout : C
Sampling rate : 48.0 kHz
Frame rate : 31.250 FPS (1536 SPF)
Bit depth : 16 bits
Compression mode : Lossy
Stream size : 123 MiB (1%)
Language : English
Service kind : Complete Main
Default : Yes
Forced : No

Text #1
ID : 3
Format : UTF-8
Codec ID : S_TEXT/UTF8
Codec ID/Info : UTF-8 Plain Text
Duration : 1 h 27 min
Bit rate : 80 b/s
Count of elements : 1283
Stream size : 51.7 KiB (0%)
Language : English
Default : No
Forced : No

Text #2
ID : 4
Format : UTF-8
Codec ID : S_TEXT/UTF8
Codec ID/Info : UTF-8 Plain Text
Duration : 1 h 26 min
Bit rate : 78 b/s
Count of elements : 1826
Stream size : 49.8 KiB (0%)
Title : SDH
Language : English
Default : No
Forced : No





1 個附件 售價 大小 下載 時間

The.Fighting.69th.1940.1080p.AMZN.WEBRip.DD1.0.x264-SbR.torrent 0 金幣 80.97K 182 次 28天前

#1樓
發帖時間:2019-10-15 06:45:33   |   回復數:1
911degrees
隱世仙人♂
非常感謝,謝謝分享
28天前 #2樓
游客組