conanlcg
超級版主

[2011] [其他] [其他] [WEB-1080P] 黑膠狂人:當生命每分鐘以33轉革命流淌時 Vinylmania.When.Life.Runs.at.33.Revolutions.Per.Minute.2012

-->

帖子完整標題:黑膠狂人:當生命每分鐘以33轉革命流淌時 Vinylmania.When.Life.Runs.at.33.Revolutions.Per.Minute.2012.SUBBED.1080p.AMZN.WEBRip.DDP2.0.x264-JOOP 5.79GB




◎譯  名 黑膠狂人:當生命每分鐘以33轉革命流淌時
◎片  名 Vinylmania: When Life Runs at 33 Revolutions Per Minute
◎年  代 2011
◎產  地 意大利
◎類  別 紀錄片 / 音樂
◎語  言 日語 / 英語 / 法語 / 意大利語 / 捷克語
◎IMDb評分 6.5/10 from 168 users
◎IMDb鏈接 https://www.imdb.com/title/tt2057499
◎豆瓣評分 0/10 from 0 users
◎豆瓣鏈接 https://movie.douban.com/subject/6961091/
◎導  演 Paolo Campana
◎主  演 Chris De Gan
      Eddie Piller
      Sanju Chiba
      小林希唯
      Peter Saville
      Winston Smith


◎標  簽 紀錄片 | 音樂 | 電影 | 意大利 | Italy | Documentary

◎簡  介

  My mother used to wake me up with a vinyl record. It is the first thing I remember about life. Many years have passed but vinyl records have never abandoned me. And you? Have you ever listened to a vinyl record? With its unique sound and crackling that gives you butterflies. Have you ever plunged into the colors of the sleeves artwork? Have you smelled it? Music captures a unique taste, seductive. In Vinylmania the director guides us through the grooves of an object that has never lost its soul. He investigates what makes it so legendary in a world dominated by liquid music: Simple nostalgia? Possession? The search for an idenitity? A cry against the fast food music? The digital river that has no heart or soul, just ones and zeros... From Tokyo to New York, London, Paris and Prague we meet a tribe of collectors, Djs, musicians and artists. We explore the stores where passion is transformed into fever and the factories that have resumed stamping millions of copies. Vinyl records are back!
Video
ID : 3
Format : AVC
Format/Info : Advanced Video Codec
Format profile : [email protected]
Format settings : CABAC / 4 Ref Frames
Format settings, CABAC : Yes
Format settings, Reference frames : 4 frames
Codec ID : V_MPEG4/ISO/AVC
Duration : 1 h 16 min
Bit rate mode : Variable
Bit rate : 10.6 Mb/s
Maximum bit rate : 15.0 Mb/s
Width : 1 920 pixels
Height : 1 080 pixels
Display aspect ratio : 16:9
Frame rate mode : Constant
Frame rate : 25.000 FPS
Color space : YUV
Chroma subsampling : 4:2:0
Bit depth : 8 bits
Scan type : Progressive
Bits/(Pixel*Frame) : 0.204
Stream size : 5.67 GiB (98%)
Writing library : x264 core 148 r2623 d5b2374
Encoding settings : cabac=1 / ref=4 / deblock=1:-1:-1 / analyse=0x3:0x133 / me=umh / subme=9 / psy=1 / psy_rd=1.00:0.15 / mixed_ref=1 / me_range=24 / chroma_me=1 / trellis=2 / 8x8dct=1 / cqm=0 / deadzone=21,11 / fast_pskip=1 / chroma_qp_offset=-3 / threads=34 / lookahead_threads=5 / sliced_threads=0 / nr=150 / decimate=1 / interlaced=0 / bluray_compat=0 / constrained_intra=0 / bframes=8 / b_pyramid=2 / b_adapt=2 / b_bias=0 / direct=3 / weightb=1 / open_gop=0 / weightp=2 / keyint=125 / keyint_min=63 / scenecut=0 / intra_refresh=0 / rc_lookahead=125 / rc=crf / mbtree=1 / crf=18.0 / qcomp=0.60 / qpmin=0 / qpmax=69 / qpstep=4 / vbv_maxrate=15000 / vbv_bufsize=31250 / crf_max=0.0 / nal_hrd=vbr / filler=0 / ip_ratio=1.40 / aq=3:1.00
Default : Yes
Forced : No
Color range : Limited
Color primaries : BT.709
Transfer characteristics : BT.709
Matrix coefficients : BT.709

Audio
ID : 2
Format : E-AC-3
Format/Info : Enhanced AC-3
Commercial name : Dolby Digital Plus
Codec ID : A_EAC3
Duration : 1 h 16 min
Bit rate mode : Constant
Bit rate : 224 kb/s
Channel(s) : 2 channels
Channel layout : L R
Sampling rate : 48.0 kHz
Frame rate : 31.250 FPS (1536 SPF)
Compression mode : Lossy
Stream size : 123 MiB (2%)
Language : English
Service kind : Complete Main
Default : Yes
Forced : No

Text
ID : 1
Format : UTF-8
Codec ID : S_TEXT/UTF8
Codec ID/Info : UTF-8 Plain Text
Duration : 1 h 13 min
Bit rate : 46 b/s
Count of elements : 609
Stream size : 24.9 KiB (0%)
Default : Yes
Forced : No





1 個附件 售價 大小 下載 時間

Vinylmania.When.Life.Runs.at.33.Revolutions.Per.Minute.2012.SUBBED.1080p.AMZN.WEBRip.DDP2.0.x264-JOOP.torrent 0 金幣 58.65K 364 次 28天前

#1樓
發帖時間:2019-10-15 06:37:58   |   回復數:2
911degrees
隱世仙人♂
非常感謝,謝謝分享
28天前 #2樓
tanchoohoon
武林盟主
感謝樓主的無私分享
28天前 #3樓
游客組