conanlcg
超級版主

[更 早] [歐美] [劇情] [WEB-1080P] 海軍悍婦 Hellcats.Of.The.Navy.1957.1080p.AMZN.WEBRip.DD2.0.x264-SbR 8.53GB

-->

帖子完整標題:海軍悍婦 Hellcats.Of.The.Navy.1957.1080p.AMZN.WEBRip.DD2.0.x264-SbR 8.53GB




◎譯  名 海軍悍婦 / Hellcats of The Navy / 海軍中的悍婦
◎片  名 Hellcats of the Navy
◎年  代 1957
◎產  地 美國
◎類  別 劇情 / 驚悚 / 戰爭
◎語  言 英語
◎上映日期 1957-10-25
◎IMDb評分 5.4/10 from 828 users
◎IMDb鏈接 https://www.imdb.com/title/tt0050500
◎豆瓣評分 0/10 from 0 users
◎豆瓣鏈接 https://movie.douban.com/subject/1753261/
◎片  長 82 分鐘
◎導  演 納森·朱蘭 Nathan Juran
◎編  劇 Charles A. Lockwood / Hans Christian Adamson / David Lang / Bernard Gordon
◎主  演 Ronald Reagan
      Nancy Davis


◎標  簽 二戰 | 美國 | 里根 | 戰爭 | 美國電影 | 愛情 | 海戰 | 羅納德

◎簡  介

  在1957年合作這部叫《海軍中的悍婦》(Hellcats of the Navy)的電影時,南希已經于1952年嫁給里根成為他的妻子,這是這對夫婦在演員時代唯一合作主演的一部電影。不久南希開始淡出電影圈不再拍片,全力照顧家庭,而里根開始主持通用電器劇場常常在全國巡演。
Video
ID : 1
Format : AVC
Format/Info : Advanced Video Codec
Format profile : [email protected]
Format settings : CABAC / 4 Ref Frames
Format settings, CABAC : Yes
Format settings, Reference frames : 4 frames
Codec ID : V_MPEG4/ISO/AVC
Duration : 1 h 21 min
Bit rate mode : Variable
Bit rate : 14.4 Mb/s
Maximum bit rate : 15.0 Mb/s
Width : 1 920 pixels
Height : 1 080 pixels
Display aspect ratio : 16:9
Frame rate mode : Constant
Frame rate : 23.976 (24000/1001) FPS
Color space : YUV
Chroma subsampling : 4:2:0
Bit depth : 8 bits
Scan type : Progressive
Bits/(Pixel*Frame) : 0.290
Stream size : 8.23 GiB (97%)
Writing library : x264 core 148 r2623 d5b2374
Encoding settings : cabac=1 / ref=4 / deblock=1:-1:-1 / analyse=0x3:0x133 / me=umh / subme=9 / psy=1 / psy_rd=1.00:0.15 / mixed_ref=1 / me_range=24 / chroma_me=1 / trellis=2 / 8x8dct=1 / cqm=0 / deadzone=21,11 / fast_pskip=1 / chroma_qp_offset=-3 / threads=34 / lookahead_threads=5 / sliced_threads=0 / nr=150 / decimate=1 / interlaced=0 / bluray_compat=0 / constrained_intra=0 / bframes=8 / b_pyramid=2 / b_adapt=2 / b_bias=0 / direct=3 / weightb=1 / open_gop=0 / weightp=2 / keyint=120 / keyint_min=61 / scenecut=0 / intra_refresh=0 / rc_lookahead=120 / rc=crf / mbtree=1 / crf=18.0 / qcomp=0.60 / qpmin=0 / qpmax=69 / qpstep=4 / vbv_maxrate=15000 / vbv_bufsize=31250 / crf_max=0.0 / nal_hrd=vbr / filler=0 / ip_ratio=1.40 / aq=3:1.00
Default : Yes
Forced : No
Color range : Limited
Color primaries : BT.709
Transfer characteristics : BT.709
Matrix coefficients : BT.709

Audio
ID : 2
Format : E-AC-3
Format/Info : Enhanced AC-3
Commercial name : Dolby Digital Plus
Codec ID : A_EAC3
Duration : 1 h 21 min
Bit rate mode : Constant
Bit rate : 224 kb/s
Channel(s) : 2 channels
Channel layout : L R
Sampling rate : 48.0 kHz
Frame rate : 31.250 FPS (1536 SPF)
Compression mode : Lossy
Stream size : 131 MiB (1%)
Language : English
Service kind : Complete Main
Default : Yes
Forced : No

Text
ID : 3
Format : UTF-8
Codec ID : S_TEXT/UTF8
Codec ID/Info : UTF-8 Plain Text
Language : English
Default : No
Forced : No





1 個附件 售價 大小 下載 時間

Hellcats.Of.The.Navy.1957.1080p.AMZN.WEBRip.DD2.0.x264-SbR.torrent 0 金幣 43.17K 329 次 1月前

#1樓
發帖時間:2019-10-15 06:35:18   |   回復數:1
911degrees
隱世仙人♂
非常感謝,謝謝分享
1月前 #2樓
游客組