conanlcg
超級版主

[更 早] [歐美] [其他] [WEB-1080P] 黃金七城/情血灑金城 Seven.Cities.of.Gold.1955.1080p.AMZN.WEBRip.DD2.0.x264-SbR 10.21GB

-->

帖子完整標題:黃金七城/情血灑金城 Seven.Cities.of.Gold.1955.1080p.AMZN.WEBRip.DD2.0.x264-SbR 10.21GB




◎譯  名 黃金七城 / 情血灑金城
◎片  名 Seven Cities of Gold
◎年  代 1955
◎產  地 美國
◎類  別 傳記 / 歷史 / 冒險
◎語  言 英語
◎上映日期 1955-09-08
◎IMDb評分 6.0/10 from 345 users
◎IMDb鏈接 https://www.imdb.com/title/tt0048603
◎豆瓣評分 0/10 from 0 users
◎豆瓣鏈接 https://movie.douban.com/subject/23229371/
◎導  演 Robert D. Webb
◎編  劇 Richard L. Breen John C. Higgins
◎主  演 理查德·伊甘 安東尼·奎恩 邁克爾·倫尼


◎標  簽 1955 | 美國 | 探險 | 動作 | WEB | 6.8 | **1/2

◎簡  介

  In the eighteenth century, a Spanish expedition is looking for seven cities of gold in a territory now known as California. A very difficult task due the opposition of the aborigines, but perhaps a divine intervention could help the Spaniards to save the life.
Video
ID : 1
Format : AVC
Format/Info : Advanced Video Codec
Format profile : [email protected]
Format settings : CABAC / 4 Ref Frames
Format settings, CABAC : Yes
Format settings, Reference frames : 4 frames
Codec ID : V_MPEG4/ISO/AVC
Duration : 1 h 42 min
Bit rate mode : Variable
Bit rate : 14.0 Mb/s
Maximum bit rate : 15.0 Mb/s
Width : 1 920 pixels
Height : 1 080 pixels
Display aspect ratio : 16:9
Frame rate mode : Constant
Frame rate : 23.976 (24000/1001) FPS
Color space : YUV
Chroma subsampling : 4:2:0
Bit depth : 8 bits
Scan type : Progressive
Bits/(Pixel*Frame) : 0.281
Stream size : 10.0 GiB (98%)
Writing library : x264 core 148 r2623 d5b2374
Encoding settings : cabac=1 / ref=4 / deblock=1:-1:-1 / analyse=0x3:0x133 / me=umh / subme=9 / psy=1 / psy_rd=1.00:0.15 / mixed_ref=1 / me_range=24 / chroma_me=1 / trellis=2 / 8x8dct=1 / cqm=0 / deadzone=21,11 / fast_pskip=1 / chroma_qp_offset=-3 / threads=34 / lookahead_threads=5 / sliced_threads=0 / nr=150 / decimate=1 / interlaced=0 / bluray_compat=0 / constrained_intra=0 / bframes=8 / b_pyramid=2 / b_adapt=2 / b_bias=0 / direct=3 / weightb=1 / open_gop=0 / weightp=2 / keyint=120 / keyint_min=61 / scenecut=0 / intra_refresh=0 / rc_lookahead=120 / rc=crf / mbtree=1 / crf=18.0 / qcomp=0.60 / qpmin=0 / qpmax=69 / qpstep=4 / vbv_maxrate=15000 / vbv_bufsize=31250 / crf_max=0.0 / nal_hrd=vbr / filler=0 / ip_ratio=1.40 / aq=3:1.00
Language : English
Default : Yes
Forced : No
Color range : Limited
Color primaries : BT.709
Transfer characteristics : BT.709
Matrix coefficients : BT.709

Audio
ID : 2
Format : E-AC-3
Format/Info : Enhanced AC-3
Commercial name : Dolby Digital Plus
Codec ID : A_EAC3
Duration : 1 h 42 min
Bit rate mode : Constant
Bit rate : 224 kb/s
Channel(s) : 2 channels
Channel layout : L R
Sampling rate : 48.0 kHz
Frame rate : 31.250 FPS (1536 SPF)
Compression mode : Lossy
Stream size : 165 MiB (2%)
Language : English
Service kind : Complete Main
Default : Yes
Forced : No

Text #1
ID : 3
Format : UTF-8
Codec ID : S_TEXT/UTF8
Codec ID/Info : UTF-8 Plain Text
Duration : 1 h 42 min
Bit rate : 45 b/s
Count of elements : 1072
Stream size : 33.8 KiB (0%)
Language : English
Default : No
Forced : No

Text #2
ID : 4
Format : UTF-8
Codec ID : S_TEXT/UTF8
Codec ID/Info : UTF-8 Plain Text
Duration : 1 h 42 min
Bit rate : 46 b/s
Count of elements : 1123
Stream size : 34.7 KiB (0%)
Title : SDH
Language : English
Default : No
Forced : No





1 個附件 售價 大小 下載 時間

Seven.Cities.of.Gold.1955.1080p.AMZN.WEBRip.DD2.0.x264-SbR.torrent 0 金幣 51.56K 203 次 1天前

#1樓
發帖時間:2019-10-14 04:29:57   |   回復數:1
911degrees
隱世仙人♂
非常感謝,謝謝分享
19小時前 #2樓
游客組