conanlcg
超級版主

[更 早] [歐美] [劇情] [BD-720P] 躍馬山莊/來了一個騎馬人 Comes.a.Horseman.1978.720p.BluRay.x264-SPOOKS 4.37GB

-->

帖子完整標題:躍馬山莊/來了一個騎馬人 Comes.a.Horseman.1978.720p.BluRay.x264-SPOOKS 4.37GB




◎譯  名 躍馬山莊 / 來了一個騎馬人 / 牧場風云
◎片  名 Comes a Horseman
◎年  代 1978
◎產  地 美國
◎類  別 劇情 / 愛情 / 西部
◎語  言 英語
◎上映日期 1978-10-25
◎IMDb評分 6.3/10 from 2196 users
◎IMDb鏈接 https://www.imdb.com/title/tt0077360
◎豆瓣評分 0/10 from 0 users
◎豆瓣鏈接 https://movie.douban.com/subject/1303288/
◎片  長 118 分鐘
◎導  演 艾倫·J·帕庫拉 Alan J. Pakula
◎編  劇 Dennis Lynton Clark
◎主  演 詹姆斯·凱恩 James Caan
      Jane Fonda
      Jason Robards


◎標  簽 JaneFonda | 西部 | Jane_Fonda | James_Caan | 1978 | 美國 | Jason_Robards | 電影

◎簡  介

  暫無相關劇情介紹

◎獲獎情況

  第51屆奧斯卡金像獎(1979)
  最佳男配角(提名) 理查德·法恩斯沃斯
Video
ID : 1
Format : AVC
Format/Info : Advanced Video Codec
Format profile : [email protected]
Format settings : CABAC / 12 Ref Frames
Format settings, CABAC : Yes
Format settings, Reference frames : 12 frames
Codec ID : V_MPEG4/ISO/AVC
Duration : 1 h 58 min
Bit rate : 4 726 kb/s
Width : 1 280 pixels
Height : 536 pixels
Display aspect ratio : 2.40:1
Frame rate mode : Constant
Frame rate : 23.976 (24000/1001) FPS
Color space : YUV
Chroma subsampling : 4:2:0
Bit depth : 8 bits
Scan type : Progressive
Bits/(Pixel*Frame) : 0.287
Stream size : 3.91 GiB (90%)
Writing library : x264 core 158 r2984 3759fcb
Encoding settings : cabac=1 / ref=12 / deblock=1:-3:-3 / analyse=0x3:0x133 / me=umh / subme=9 / psy=1 / psy_rd=1.00:0.00 / mixed_ref=1 / me_range=24 / chroma_me=1 / trellis=1 / 8x8dct=1 / cqm=0 / deadzone=21,11 / fast_pskip=0 / chroma_qp_offset=-2 / threads=6 / lookahead_threads=1 / sliced_threads=0 / nr=0 / decimate=1 / interlaced=0 / bluray_compat=0 / constrained_intra=0 / bframes=8 / b_pyramid=2 / b_adapt=2 / b_bias=0 / direct=3 / weightb=1 / open_gop=0 / weightp=2 / keyint=250 / keyint_min=23 / scenecut=40 / intra_refresh=0 / rc_lookahead=60 / rc=2pass / mbtree=1 / bitrate=4726 / ratetol=1.0 / qcomp=0.60 / qpmin=0 / qpmax=69 / qpstep=4 / cplxblur=20.0 / qblur=0.5 / vbv_maxrate=62500 / vbv_bufsize=78125 / nal_hrd=none / filler=0 / ip_ratio=1.40 / aq=1:1.00
Default : Yes
Forced : No

Audio
ID : 2
Format : FLAC
Format/Info : Free Lossless Audio Codec
Codec ID : A_FLAC
Duration : 1 h 58 min
Bit rate mode : Variable
Bit rate : 549 kb/s
Channel(s) : 2 channels
Channel layout : L R
Sampling rate : 48.0 kHz
Frame rate : 10.417 FPS (4608 SPF)
Bit depth : 24 bits
Compression mode : Lossless
Stream size : 466 MiB (10%)
Writing library : Lavf58.12.100
Language : English
Default : Yes
Forced : No

Menu
00:00:00.000 : en:00:00:00.000
00:09:32.155 : en:00:09:32.155
00:17:54.073 : en:00:17:54.073
00:28:24.369 : en:00:28:24.369
00:38:29.140 : en:00:38:29.140
00:46:43.300 : en:00:46:43.300
00:59:02.330 : en:00:59:02.330
01:07:11.861 : en:01:07:11.861
01:22:09.800 : en:01:22:09.800
01:28:10.952 : en:01:28:10.952
01:38:09.926 : en:01:38:09.926
01:48:20.369 : en:01:48:20.369





1 個附件 售價 大小 下載 時間

Comes.a.Horseman.1978.720p.BluRay.x264-SPOOKS.torrent 0 金幣 44.54K 189 次 1天前

#1樓
發帖時間:2019-10-14 03:23:26   |   回復數:1
911degrees
隱世仙人♂
非常感謝,謝謝分享
19小時前 #2樓
游客組