conanlcg
超級版主

[2013] [日本] [愛情] [WEB-1080P] 戀愛教主 Jinkusu.2013.JAPANESE.1080p.AMZN.WEBRip.DDP5.1.x264-DEEP 8.65GB

-->

帖子完整標題:戀愛教主 Jinkusu.2013.JAPANESE.1080p.AMZN.WEBRip.DDP5.1.x264-DEEP 8.65GB




◎譯  名 戀愛教主 / Jinx
◎片  名 ジンクス!!!
◎年  代 2013
◎產  地 日本
◎類  別 愛情
◎語  言 日語
◎上映日期 2013-11-16(日本)
◎IMDb評分 6.9/10 from 111 users
◎IMDb鏈接 https://www.imdb.com/title/tt2691040
◎豆瓣評分 5.4/10 from 429 users
◎豆瓣鏈接 https://movie.douban.com/subject/22293372/
◎片  長 123分鐘
◎導  演 熊澤尚人
◎編  劇 熊澤尚人 / まなべゆきこ
◎主  演 樸孝敏 Hyomin Park
      清水久留巳 Kurumi Shimizu
      山崎賢人 Kento Yamazaki
      落合扶樹 Motoki Ochiai
      松山愛里 Airi Matsuyama
      宮田早苗 Sanae Miyata
      高橋和也 Kazuya Takahashi
      全秀景 Soo-kyung Chun


◎標  簽 樸孝敏 | 日本 | 日本電影 | 山崎賢人 | 青春 | 愛情 | 韓國 | 電影

◎簡  介

  戀人泰汶突然去世,熱情開朗、外向樂觀的韓國女孩允智孝(樸孝敏 飾)深埋心中的悲痛,只身前往日本做為期三個月的短期留學。來校的第一天,她就結識了獨來獨往、內向保守的日本女孩山口楓(清水久留巳 飾)。不顧小楓的反感,自言星座和血型很搭的智孝死纏爛打黏住了對方。某天,兩個女孩在校園里被男生搭訕,其中名叫野村雄介(山崎賢人 飾)的是小楓初中時候的同學,小楓一直喜歡對方,但因當年一起事件導致二人彼此疏遠。知曉了小楓的心意,智孝拿出韓國女孩敢愛敢恨的勁頭和追愛攻略,發誓要幫好友贏得王子的青睞。
  陽光明媚的校園里,男孩和女孩的浪漫故事拉開帷幕……
Video
ID : 1
Format : AVC
Format/Info : Advanced Video Codec
Format profile : [email protected]
Format settings : CABAC / 4 Ref Frames
Format settings, CABAC : Yes
Format settings, Reference frames : 4 frames
Format settings, GOP : M=4, N=48
Codec ID : V_MPEG4/ISO/AVC
Duration : 2 h 2 min
Bit rate mode : Constant
Bit rate : 10 000 kb/s
Width : 1 920 pixels
Height : 1 040 pixels
Display aspect ratio : 1.85:1
Frame rate mode : Constant
Frame rate : 23.976 (24000/1001) FPS
Color space : YUV
Chroma subsampling : 4:2:0
Bit depth : 8 bits
Scan type : Progressive
Bits/(Pixel*Frame) : 0.209
Stream size : 8.26 GiB (95%)
Default : Yes
Forced : No
Color range : Limited
Color primaries : BT.709
Transfer characteristics : BT.709
Matrix coefficients : BT.709
Statistics Tags Issue : mkvmerge v30.1.0 (\'Forever And More\') 64-bit 2019-10-09 20:31:08 / mkvmerge v6.0.0 (\'Coming Up For Air\') built on Jan 20 2013 09:52:00 2019-10-12 10:07:40
FromStats_BitRate : 9825823
FromStats_Duration : 02:02:52.616000000
FromStats_FrameCount : 176766
FromStats_StreamSize : 9055253194

Audio
ID : 2
Format : E-AC-3
Format/Info : Enhanced AC-3
Commercial name : Dolby Digital Plus
Codec ID : A_EAC3
Duration : 2 h 2 min
Bit rate mode : Constant
Bit rate : 256 kb/s
Channel(s) : 6 channels
Channel layout : L R C LFE Ls Rs
Sampling rate : 48.0 kHz
Frame rate : 31.250 FPS (1536 SPF)
Compression mode : Lossy
Stream size : 225 MiB (3%)
Language : Japanese
Service kind : Complete Main
Default : Yes
Forced : No
Statistics Tags Issue : mkvmerge v30.1.0 (\'Forever And More\') 64-bit 2019-10-09 20:31:08 / mkvmerge v6.0.0 (\'Coming Up For Air\') built on Jan 20 2013 09:52:00 2019-10-12 10:07:40
FromStats_BitRate : 256000
FromStats_Duration : 02:02:52.640000000
FromStats_FrameCount : 230395
FromStats_StreamSize : 235924480

Text
ID : 3
Format : UTF-8
Codec ID : S_TEXT/UTF8
Codec ID/Info : UTF-8 Plain Text
Language : English
Default : Yes
Forced : No





1 個附件 售價 大小 下載 時間

Jinkusu.2013.JAPANESE.1080p.AMZN.WEBRip.DDP5.1.x264-DEEP.torrent 0 金幣 43.80K 469 次 1天前

#1樓
發帖時間:2019-10-13 23:25:46   |   回復數:1
911degrees
隱世仙人♂
非常感謝,謝謝分享
19小時前 #2樓
游客組