conanlcg
超級版主

[2017] [歐美] [其他] [WEB-1080P] 傾向于風 Leaning.Into.The.Wind-Andy.Goldsworthy.2017.1080p.AMZN.WEBRip.DDP5.1.x264-C

-->

帖子完整標題:傾向于風 Leaning.Into.The.Wind-Andy.Goldsworthy.2017.1080p.AMZN.WEBRip.DDP5.1.x264-Cinefeel 5.99GB




◎譯  名 傾向于風
◎片  名 Leaning Into the Wind: Andy Goldsworthy
◎年  代 2017
◎產  地 英國
◎類  別 紀錄片
◎語  言 英語
◎上映日期 2017-04-08(美國)
◎IMDb評分 6.8/10 from 264 users
◎IMDb鏈接 https://www.imdb.com/title/tt6263828
◎豆瓣評分 0/10 from 0 users
◎豆瓣鏈接 https://movie.douban.com/subject/27073227/
◎導  演 Thomas Riedelsheimer
◎編  劇 Thomas Riedelsheimer

◎標  簽 紀錄片 | 藝術 | Documentary | Andy_Goldsworthy | 英國 | 紀錄 | AndyGoldsworthy | 紀錄片

◎簡  介

  Sixteen years after the release of the ground-breaking film Rivers and Tides - Andy Goldsworthy Working with Time director Thomas Riedelsheimer has returned to work with the artist. Leaning into the Wind - Andy Goldsworthy follows Andy on his exploration of the layers of his world and the impact of the years on himself and his art. As Goldsworthy introduces his own body into the work it becomes at the same time even more fragile and personal and also sterner and tougher, incorporating massive machinery and crews on his bigger projects. Riedelsheimer's exquisite film illuminates Goldsworthy's mind as it reveals his art. Written by Leslie Hills

◎獲獎情況

  第20屆英國獨立電影獎(2017)
  最佳攝影(提名)
  最佳音樂(提名)
Video
ID : 1
Format : AVC
Format/Info : Advanced Video Codec
Format profile : [email protected]
Format settings : CABAC / 4 Ref Frames
Format settings, CABAC : Yes
Format settings, Reference frames : 4 frames
Codec ID : V_MPEG4/ISO/AVC
Duration : 1 h 33 min
Bit rate mode : Constant
Bit rate : 8 569 kb/s
Nominal bit rate : 10 000 kb/s
Width : 1 920 pixels
Height : 1 080 pixels
Display aspect ratio : 16:9
Frame rate mode : Constant
Frame rate : 25.000 FPS
Color space : YUV
Chroma subsampling : 4:2:0
Bit depth : 8 bits
Scan type : Progressive
Bits/(Pixel*Frame) : 0.165
Stream size : 5.58 GiB (93%)
Default : Yes
Forced : No
Color range : Limited
Color primaries : BT.709
Transfer characteristics : BT.709
Matrix coefficients : BT.709

Audio
ID : 2
Format : E-AC-3
Format/Info : Enhanced AC-3
Commercial name : Dolby Digital Plus
Codec ID : A_EAC3
Duration : 1 h 33 min
Bit rate mode : Constant
Bit rate : 640 kb/s
Channel(s) : 6 channels
Channel layout : L R C LFE Ls Rs
Sampling rate : 48.0 kHz
Frame rate : 31.250 FPS (1536 SPF)
Compression mode : Lossy
Stream size : 426 MiB (7%)
Language : English
Service kind : Complete Main
Default : Yes
Forced : No





1 個附件 售價 大小 下載 時間

Leaning.Into.The.Wind-Andy.Goldsworthy.2017.1080p.AMZN.WEBRip.DDP5.1.x264-Cinefeel.torrent 0 金幣 30.56K 161 次 1天前

#1樓
發帖時間:2019-10-13 23:23:53   |   回復數:1
911degrees
隱世仙人♂
非常感謝,謝謝分享
19小時前 #2樓
游客組