conanlcg
超級版主

[2007] [其他] [驚悚] [WEB-1080P] 捕獸器 Steel.Trap.2007.1080p.AMZN.WEBRip.DDP2.0.x264-monkee 6.61GB

-->

帖子完整標題:捕獸器 Steel.Trap.2007.1080p.AMZN.WEBRip.DDP2.0.x264-monkee 6.61GB




◎譯  名 捕獸器 / Butchered - Keiner kann entkommen / 陷阱
◎片  名 Steel Trap
◎年  代 2007
◎產  地 德國
◎類  別 驚悚 / 恐怖
◎語  言 英語
◎上映日期 2007-11-07
◎IMDb評分 4.3/10 from 1514 users
◎IMDb鏈接 https://www.imdb.com/title/tt0973790
◎豆瓣評分 0/10 from 0 users
◎豆瓣鏈接 https://movie.douban.com/subject/2983442/
◎片  長 89分鐘
◎導  演 Luis Cámara

◎標  簽 我看過的電影 | 我看過的恐怖電影 | 我看過的英語電影 | 英語的標簽 | 英語標簽 | 電影迷 | 驚悚 | 恐怖電影

◎簡  介

  新年前夕,威德(Mark Wilson 馬克?威爾森 飾)、羅伯特(Pascal Langdale 帕斯科?蘭格戴爾 飾)、妮可(Julia Ballard 朱麗婭?貝拉德 飾)等五個互不相識的人相繼收到神秘的邀請函,邀請他們參加一個派對,派對地點在一座大廈27層頂樓上。
  然而令他們奇怪的是,派對房間被裝飾成兒童的派對,每個人都有對應的座位:豬、失敗者、雙面人、沒心腸和情人男孩。是有人惡作劇?還是某種主體派對?正當他們困惑不解之時,危及撲面襲來,一場派對變成了殘酷無情的狩獵游戲……
Video
ID : 1
Format : AVC
Format/Info : Advanced Video Codec
Format profile : [email protected]
Format settings : CABAC / 4 Ref Frames
Format settings, CABAC : Yes
Format settings, Reference frames : 4 frames
Format settings, GOP : M=4, N=48
Codec ID : V_MPEG4/ISO/AVC
Duration : 1 h 32 min
Bit rate mode : Constant
Bit rate : 10 000 kb/s
Width : 1 920 pixels
Height : 1 080 pixels
Display aspect ratio : 16:9
Frame rate mode : Constant
Frame rate : 23.976 (24000/1001) FPS
Color space : YUV
Chroma subsampling : 4:2:0
Bit depth : 8 bits
Scan type : Progressive
Bits/(Pixel*Frame) : 0.201
Stream size : 6.46 GiB (98%)
Language : English
Default : Yes
Forced : No
Color range : Limited
Color primaries : BT.709
Transfer characteristics : BT.709
Matrix coefficients : BT.709

Audio
ID : 2
Format : E-AC-3
Format/Info : Enhanced AC-3
Commercial name : Dolby Digital Plus
Codec ID : A_EAC3
Duration : 1 h 32 min
Bit rate mode : Constant
Bit rate : 224 kb/s
Channel(s) : 2 channels
Channel layout : L R
Sampling rate : 48.0 kHz
Frame rate : 31.250 FPS (1536 SPF)
Compression mode : Lossy
Stream size : 149 MiB (2%)
Language : English
Service kind : Complete Main
Default : Yes
Forced : No

Text #1
ID : 3
Format : UTF-8
Codec ID : S_TEXT/UTF8
Codec ID/Info : UTF-8 Plain Text
Duration : 1 h 31 min
Bit rate : 56 b/s
Count of elements : 1281
Stream size : 37.8 KiB (0%)
Language : English
Default : No
Forced : No

Text #2
ID : 4
Format : UTF-8
Codec ID : S_TEXT/UTF8
Codec ID/Info : UTF-8 Plain Text
Duration : 1 h 32 min
Bit rate : 58 b/s
Count of elements : 1374
Stream size : 39.6 KiB (0%)
Title : SDH
Language : English
Default : No
Forced : No





1 個附件 售價 大小 下載 時間

Steel.Trap.2007.1080p.AMZN.WEBRip.DDP2.0.x264-monkee.torrent 0 金幣 33.57K 266 次 1天前

#1樓
發帖時間:2019-10-13 23:15:47   |   回復數:1
911degrees
隱世仙人♂
非常感謝,謝謝分享
19小時前 #2樓
游客組