conanlcg
超級版主

[2019] [歐美] [動作] [WEB-1080P] 速度與激情:特別行動 Fast.and.Furious.Presents.Hobbs.and.Shaw.2019.1080p.WEB-DL.DD5.1.H264

-->

帖子完整標題:速度與激情:特別行動 Fast.and.Furious.Presents.Hobbs.and.Shaw.2019.1080p.WEB-DL.DD5.1.H264-FGT 4.66GB




◎譯  名 速度與激情:特別行動 / Hobbs and Shaw / The Fast and the Furious Spinoff / 狂野時速:雙雄聯盟(港) / 玩命關頭:特別行動(臺) / 速度與基情(豆友譯名) / 速度與激情外傳 / 速度與激情衍生片 / 霍布斯與肖
◎片  名 Fast & Furious Presents: Hobbs & Shaw
◎年  代 2019
◎產  地 美國
◎類  別 動作 / 犯罪
◎語  言 英語
◎上映日期 2019-08-02(美國) / 2019-08-23(中國大陸)
◎IMDb評分 6.8/10 from 64451 users
◎IMDb鏈接 http://www.imdb.com/title/tt6806448
◎豆瓣評分 6.4/10 from 122826 users
◎豆瓣鏈接 https://movie.douban.com/subject/27163278/
◎片  長 137分鐘
◎導  演 大衛·雷奇 David Leitch
◎編  劇 克里斯·摩根 Chris Morgan / 蓋瑞·斯科特·湯普森 Gary Scott Thompson / 德魯·皮爾斯 Drew Pearce
◎主  演 道恩·強森 Dwayne Johnson
      杰森·斯坦森 Jason Statham
      伊德里斯·艾爾巴 Idris Elba
      凡妮莎·柯比 Vanessa Kirby
      艾莎·岡薩雷斯 Eiza González
      海倫·米倫 Helen Mirren
      瑞恩·雷諾茲 Ryan Reynolds
      凱文·哈特 Kevin Hart
      埃迪·馬森 Eddie Marsan
      羅曼·雷恩斯 Roman Reigns
      斯蒂芬妮·沃格特 Stephanie Vogt
      維克托里婭·菲斯 Viktorija Faith
      康蘭·卡薩爾 Conlan Casal
      海倫娜·福爾摩斯 Helena Holmes
      伯納多·桑托斯 Bernardo Santos
      露絲·霍洛克斯 Ruth Horrocks
      大衛·穆梅尼 David Mumeni
      馬諾伊·阿南德 Manoj Anand
      阿瑪爾·阿達蒂亞 Amar Adatia
      朱利安·費羅 Julian Ferro
      丹尼爾·厄根 Daniel Eghan
      拉普洛斯·卡倫福佐斯 Lampros Kalfuntzos
      阿克塞爾·努 Axel Nu
      史蒂夫·萊溫頓 Steve Lewington
      安東尼奧·曼奇諾 Antonio Mancino
      斯特拉·斯托克爾 Stella Stocker
      克利夫·柯蒂斯 Cliff Curtis


◎標  簽 動作 | 速度與激情:特別行動 | 美國 | 飆車 | 2019 | 犯罪 | 冒險 | 賽車

◎簡  介

  一個是美國外交安全局的忠誠特工、身材魁梧的執法者霍布斯(強森飾),一個是前英國軍事特工精英、無法無天的惡棍肖(斯坦森飾)。在2015年的《速度與激情7》中首次對峙之后,兩人不論言語還是肢體都沖突不斷,一直試圖打倒對方。
  然而,通過高科技進行了基因增強的無政府主義者布里克斯頓(伊德瑞斯·艾爾巴飾)控制了一種可能永遠改變人類命運的不為人知的生化武器,并且還打敗了一位大膽優秀又特立獨行的軍情六處特工(曾出演《王冠》的凡妮莎·科比飾)——她恰好是肖的妹妹,為了扳倒這個世界上唯一可能比他們更厲害的敵人,這兩個不共戴天的宿敵不得不聯手。
  《速度與激情:特別行動》一片在《速度與激情》系列的宇宙中推開了一扇全新的大門。從洛杉磯到倫敦,從切爾諾貝利的有毒廢墟到美麗的南太平洋島國薩摩亞,本次特別行動席卷全球。
  該片由大衛·雷奇執導(《死侍2》導演),由《速度與激情》系列故事的締造者克里斯·摩根編劇,摩根、強森、斯坦森和海拉姆·加西亞共同擔綱制片。丹尼·加西亞、凱利·麥考密克、 、史蒂文·查斯曼、伊森·史密斯和安斯利·戴維斯擔任監制。
Video
ID : 1
Format : AVC
Format/Info : Advanced Video Codec
Format profile : [email protected]
Format settings : CABAC / 5 Ref Frames
Format settings, CABAC : Yes
Format settings, Reference frames : 5 frames
Codec ID : V_MPEG4/ISO/AVC
Duration : 2 h 15 min
Bit rate : 4 519 kb/s
Width : 1 916 pixels
Height : 798 pixels
Display aspect ratio : 2.40:1
Frame rate mode : Constant
Frame rate : 23.976 (23976/1000) FPS
Color space : YUV
Chroma subsampling : 4:2:0
Bit depth : 8 bits
Scan type : Progressive
Bits/(Pixel*Frame) : 0.123
Stream size : 4.29 GiB (92%)
Title : Fast.and.Furious.Presents.Hobbs.and.Shaw.2019.1080p.WEB-DL.DD5.1.H264-FGT
Language : English
Default : Yes
Forced : No
Color range : Limited
Color primaries : BT.709
Transfer characteristics : BT.709
Matrix coefficients : BT.709

Audio
ID : 2
Format : AC-3
Format/Info : Audio Coding 3
Commercial name : Dolby Digital
Codec ID : A_AC3
Duration : 2 h 15 min
Bit rate mode : Constant
Bit rate : 384 kb/s
Channel(s) : 6 channels
Channel layout : L R C LFE Ls Rs
Sampling rate : 48.0 kHz
Frame rate : 31.250 FPS (1536 SPF)
Bit depth : 16 bits
Compression mode : Lossy
Stream size : 373 MiB (8%)
Title : Fast.and.Furious.Presents.Hobbs.and.Shaw.2019.1080p.WEB-DL.DD5.1.H264-FGT
Language : English
Service kind : Complete Main
Default : Yes
Forced : No

Text #1
ID : 3
Format : UTF-8
Codec ID : S_TEXT/UTF8
Codec ID/Info : UTF-8 Plain Text
Duration : 1 h 1 min
Bit rate : 0 b/s
Count of elements : 13
Stream size : 346 Bytes (0%)
Title : FORCED
Language : English
Default : Yes
Forced : Yes

Text #2
ID : 4
Format : UTF-8
Codec ID : S_TEXT/UTF8
Codec ID/Info : UTF-8 Plain Text
Duration : 2 h 15 min
Bit rate : 65 b/s
Count of elements : 2283
Stream size : 65.1 KiB (0%)
Language : English
Default : No
Forced : No

Menu
00:00:00.000 : en:1
00:04:59.049 : en:2
00:13:44.491 : en:3
00:19:22.453 : en:4
00:26:46.980 : en:5
00:35:42.514 : en:6
00:40:14.244 : en:7
00:46:23.028 : en:8
00:51:35.214 : en:9
00:57:52.799 : en:10
01:01:54.248 : en:11
01:08:46.158 : en:12
01:14:23.829 : en:13
01:19:49.070 : en:14
01:25:00.255 : en:15
01:32:59.191 : en:16
01:38:49.916 : en:17
01:46:33.962 : en:18
01:53:30.585 : en:19
02:01:15.800 : en:20





1 個附件 售價 大小 下載 時間

Fast.and.Furious.Presents.Hobbs.and.Shaw.2019.1080p.WEB-DL.DD5.1.H264-FGT.torrent 0 金幣 47.15K 4470 次 1天前

#1樓
發帖時間:2019-10-13 22:16:03   |   回復數:5
show55667878
武林高手
感謝分享這版本
1天前 #2樓
GNing
武林高手
thank you
1天前 #3樓
nsjfr
江湖小蝦
感謝分享這版本
23小時前 #4樓
911degrees
隱世仙人♂
非常感謝,謝謝分享
19小時前 #5樓
jokingcheung
一代宗師
謝謝分享
13小時前 #6樓
游客組