conanlcg
超級版主

[更 早] [歐美] [劇情] [BD-1080P] 小城故事 Small.Town.Story.1953.1080p.BluRay.x264-GHOULS 4.38GB

-->

帖子完整標題:小城故事 Small.Town.Story.1953.1080p.BluRay.x264-GHOULS 4.38GB




◎譯  名 小城故事
◎片  名 Small Town Story
◎年  代 1953
◎產  地 英國
◎類  別 劇情
◎語  言 英語
◎IMDb評分 6.7/10 from 38 users
◎IMDb鏈接 https://www.imdb.com/title/tt0046331
◎豆瓣評分 0/10 from 0 users
◎豆瓣鏈接 https://movie.douban.com/subject/1300152/
◎導  演 蒙哥馬利·塔利 Montgomery Tully
◎編  劇 喬治·費舍 George Fisher / 唐納德·休斯敦 Donald Houston / 弗朗茲·馬里斯楚卡 Franz Marischka / Maurice Weissberger
◎主  演 唐納德·休斯敦 Donald Houston
      蘇珊·肖 Susan Shaw
      艾倫·惠特利 Alan Wheatley
      肯特·沃爾頓 Kent Walton
      喬治梅利特 George Merritt


◎標  簽 突然很想看小城故事。。。

◎簡  介

  暫無相關劇情介紹
Video
ID : 1
Format : AVC
Format/Info : Advanced Video Codec
Format profile : [email protected]
Format settings : CABAC / 5 Ref Frames
Format settings, CABAC : Yes
Format settings, Reference frames : 5 frames
Codec ID : V_MPEG4/ISO/AVC
Duration : 1 h 8 min
Bit rate : 8 741 kb/s
Width : 1 488 pixels
Height : 1 080 pixels
Display aspect ratio : 1.378
Frame rate mode : Constant
Frame rate : 24.000 FPS
Color space : YUV
Chroma subsampling : 4:2:0
Bit depth : 8 bits
Scan type : Progressive
Bits/(Pixel*Frame) : 0.227
Stream size : 4.17 GiB (95%)
Writing library : x264 core 158 r2984 3759fcb
Encoding settings : cabac=1 / ref=5 / deblock=1:-3:-3 / analyse=0x3:0x133 / me=umh / subme=9 / psy=1 / psy_rd=1.00:0.00 / mixed_ref=1 / me_range=24 / chroma_me=1 / trellis=1 / 8x8dct=1 / cqm=0 / deadzone=21,11 / fast_pskip=0 / chroma_qp_offset=-2 / threads=6 / lookahead_threads=1 / sliced_threads=0 / nr=0 / decimate=1 / interlaced=0 / bluray_compat=0 / constrained_intra=0 / bframes=8 / b_pyramid=2 / b_adapt=2 / b_bias=0 / direct=3 / weightb=1 / open_gop=0 / weightp=2 / keyint=250 / keyint_min=24 / scenecut=40 / intra_refresh=0 / rc_lookahead=60 / rc=2pass / mbtree=1 / bitrate=8741 / ratetol=1.0 / qcomp=0.60 / qpmin=0 / qpmax=69 / qpstep=4 / cplxblur=20.0 / qblur=0.5 / vbv_maxrate=62500 / vbv_bufsize=78125 / nal_hrd=none / filler=0 / ip_ratio=1.40 / aq=1:1.00
Default : Yes
Forced : No

Audio
ID : 2
Format : FLAC
Format/Info : Free Lossless Audio Codec
Codec ID : A_FLAC
Duration : 1 h 8 min
Bit rate mode : Variable
Bit rate : 416 kb/s
Channel(s) : 2 channels
Channel layout : L R
Sampling rate : 48.0 kHz
Frame rate : 10.417 FPS (4608 SPF)
Bit depth : 16 bits
Compression mode : Lossless
Stream size : 203 MiB (5%)
Writing library : Lavf58.12.100
Language : English
Default : Yes
Forced : No

Menu
00:00:00.000 : en:00:00:00.000
00:05:17.583 : en:00:05:17.583
00:09:35.792 : en:00:09:35.792
00:15:11.292 : en:00:15:11.292
00:21:07.042 : en:00:21:07.042
00:32:32.042 : en:00:32:32.042
00:38:17.250 : en:00:38:17.250
00:43:34.042 : en:00:43:34.042
00:48:32.417 : en:00:48:32.417
00:52:14.708 : en:00:52:14.708
00:57:20.333 : en:00:57:20.333
01:06:18.292 : en:01:06:18.292





1 個附件 售價 大小 下載 時間

Small.Town.Story.1953.1080p.BluRay.x264-GHOULS.torrent 0 金幣 44.59K 294 次 9月前

#1樓
發帖時間:2019-10-13 16:47:31   |   回復數:1
911degrees
隱世仙人♂
非常感謝,謝謝分享
9月前 #2樓
游客組