conanlcg
超級版主

[2007] [韓國] [喜劇] [BD-1080P] 金館長對金館長對金館長 Three.Kims.2007.KOREAN.1080p.BluRay.x264.DTS-EPiC 11.28GB

-->

帖子完整標題:金館長對金館長對金館長 Three.Kims.2007.KOREAN.1080p.BluRay.x264.DTS-EPiC 11.28GB




◎譯  名 金館長對金館長對金館長 / Three Kims
◎片  名 ??? ? ??? ? ???
◎年  代 2007
◎產  地 韓國
◎類  別 喜劇 / 動作
◎語  言 韓語
◎上映日期 2007-02-08
◎IMDb評分 6.2/10 from 252 users
◎IMDb鏈接 https://www.imdb.com/title/tt0984057
◎豆瓣評分 6.4/10 from 14556 users
◎豆瓣鏈接 https://movie.douban.com/subject/2063867/
◎片  長 South Korea: 97 分鐘
◎導  演 樸成均 Park Sung Kyun
◎編  劇 樸成均
◎主  演 申賢俊 Hyeon-jun Shin
      崔成國 Seong-guk Choi
      權伍中 Oh-jung Kwon
      吳承賢 Seung-hyeon Oh
      鄭俊河 Jun-ha Jeong
      李瀚偉 Han-wi Lee
      文元柱 Won-joo Moon
      盧宙鉉 Ju-hyeon No
      樸哲民 Cheol-min Park
      卓在勛 Jae-hun Tak
      權五民


◎標  簽 喜劇 | 韓國 | 搞笑 | 韓國電影 | 金館長對金館長對金館長 | 崔成國 | 2007 | 動作

◎簡  介

  某韓國小鎮上,圍繞著一家中國餐館形成了武館角,餐館主人是年邁的前中國功夫教練——如今的武會社長。教授跆拳道的金館長(申賢俊 飾)與教授劍道的金館長(崔成國 飾)是一對天生的冤家,從事業到愛情無不針鋒相對,日子在兩家武館的生源爭奪戰中平淡的過去,直到又一位金館長出現——從武會社長處租到場地的功夫教頭(權伍中 飾),兩位金館長面對優勢盡現的新對手,感到如芒在背,只得結為暫時的同盟,結果卻只是弄巧成拙。老會長有心偏袒自己的同派后輩,向三人提出了比武招親的解決方式,在準備比武的間隙,黑社會勢力入侵小鎮,三位金館長終于同仇敵愾,為尊嚴和友誼向惡勢力發起挑戰。
Video
ID : 1
Format : AVC
Format/Info : Advanced Video Codec
Format profile : [email protected]
Format settings : CABAC / 5 Ref Frames
Format settings, CABAC : Yes
Format settings, Reference frames : 5 frames
Codec ID : V_MPEG4/ISO/AVC
Duration : 1 h 37 min
Bit rate : 15.1 Mb/s
Width : 1 912 pixels
Height : 836 pixels
Display aspect ratio : 2.25:1
Frame rate mode : Constant
Frame rate : 23.976 (24000/1001) FPS
Color space : YUV
Chroma subsampling : 4:2:0
Bit depth : 8 bits
Scan type : Progressive
Bits/(Pixel*Frame) : 0.393
Stream size : 10.3 GiB (91%)
Writing library : x264 core 148 r2694 3b70645
Encoding settings : cabac=1 / ref=5 / deblock=1:-3:-3 / analyse=0x3:0x133 / me=umh / subme=11 / psy=1 / psy_rd=1.09:0.00 / mixed_ref=1 / me_range=24 / chroma_me=1 / trellis=2 / 8x8dct=1 / cqm=0 / deadzone=21,11 / fast_pskip=0 / chroma_qp_offset=-2 / threads=18 / lookahead_threads=3 / sliced_threads=0 / nr=0 / decimate=0 / interlaced=0 / bluray_compat=0 / constrained_intra=0 / bframes=8 / b_pyramid=2 / b_adapt=2 / b_bias=0 / direct=3 / weightb=1 / open_gop=0 / weightp=2 / keyint=250 / keyint_min=23 / scenecut=40 / intra_refresh=0 / rc_lookahead=120 / rc=crf / mbtree=0 / crf=15.7 / qcomp=0.55 / qpmin=0 / qpmax=35 / qpstep=2 / vbv_maxrate=38000 / vbv_bufsize=30000 / crf_max=0.0 / nal_hrd=none / filler=0 / ip_ratio=1.30 / pb_ratio=1.20 / aq=1:1.20
Language : Korean
Default : Yes
Forced : No

Audio
ID : 2
Format : DTS
Format/Info : Digital Theater Systems
Codec ID : A_DTS
Duration : 1 h 37 min
Bit rate mode : Constant
Bit rate : 1 509 kb/s
Channel(s) : 6 channels
Channel layout : C L R Ls Rs LFE
Sampling rate : 48.0 kHz
Frame rate : 93.750 FPS (512 SPF)
Bit depth : 24 bits
Compression mode : Lossy
Stream size : 1.03 GiB (9%)
Language : Korean
Default : Yes
Forced : No

Text
ID : 3
Format : UTF-8
Codec ID : S_TEXT/UTF8
Codec ID/Info : UTF-8 Plain Text
Duration : 1 h 36 min
Bit rate : 36 b/s
Count of elements : 1164
Stream size : 25.8 KiB (0%)
Language : English
Default : Yes
Forced : No





1 個附件 售價 大小 下載 時間

Three.Kims.2007.KOREAN.1080p.BluRay.x264.DTS-EPiC.torrent 0 金幣 56.95K 3920 次 9月前

#1樓
發帖時間:2019-10-13 11:15:02   |   回復數:6
pokuan909
武林高手
感謝分享
9月前 #2樓
渣渣灰
江湖小蝦

感謝分享
9月前 #3樓
kola13
武林盟主
巨搞笑的電影,感謝分享
9月前 #4樓
tanchoohoon
武林盟主
感謝樓主的無私分享
9月前 #5樓
ss741
小有名氣
一大波表情包來了~感謝分享~~~~
9月前 #6樓
911degrees
隱世仙人♂
非常感謝,謝謝分享
9月前 #7樓
游客組